originalFile.mp4 vs outputFile.mp4

-17 Removals
+17 Additions
ffprobe version 4.2.1 Copyright (c) 2007-2019 the FFmpeg developersffprobe version 4.2.1 Copyright (c) 2007-2019 the FFmpeg developers
built with Apple clang version 11.0.0 (clang-1100.0.33.12) built with Apple clang version 11.0.0 (clang-1100.0.33.12)
configuration: --prefix=/usr/local/Cellar/ffmpeg/4.2.1_2 --enable-shared --enable-pthreads --enable-version3 --enable-avresample --cc=clang --host-cflags='-I/System/Library/Frameworks/JavaVM.framework/Versions/Current/Headers/ -fno-stack-check' --host-ldflags= --enable-ffplay --enable-gnutls --enable-gpl --enable-libaom --enable-libbluray --enable-libmp3lame --enable-libopus --enable-librubberband --enable-libsnappy --enable-libtesseract --enable-libtheora --enable-libvidstab --enable-libvorbis --enable-libvpx --enable-libx264 --enable-libx265 --enable-libxvid --enable-lzma --enable-libfontconfig --enable-libfreetype --enable-frei0r --enable-libass --enable-libopencore-amrnb --enable-libopencore-amrwb --enable-libopenjpeg --enable-librtmp --enable-libspeex --enable-libsoxr --enable-videotoolbox --disable-libjack --disable-indev=jack configuration: --prefix=/usr/local/Cellar/ffmpeg/4.2.1_2 --enable-shared --enable-pthreads --enable-version3 --enable-avresample --cc=clang --host-cflags='-I/System/Library/Frameworks/JavaVM.framework/Versions/Current/Headers/ -fno-stack-check' --host-ldflags= --enable-ffplay --enable-gnutls --enable-gpl --enable-libaom --enable-libbluray --enable-libmp3lame --enable-libopus --enable-librubberband --enable-libsnappy --enable-libtesseract --enable-libtheora --enable-libvidstab --enable-libvorbis --enable-libvpx --enable-libx264 --enable-libx265 --enable-libxvid --enable-lzma --enable-libfontconfig --enable-libfreetype --enable-frei0r --enable-libass --enable-libopencore-amrnb --enable-libopencore-amrwb --enable-libopenjpeg --enable-librtmp --enable-libspeex --enable-libsoxr --enable-videotoolbox --disable-libjack --disable-indev=jack
libavutil 56. 31.100 / 56. 31.100 libavutil 56. 31.100 / 56. 31.100
libavcodec 58. 54.100 / 58. 54.100 libavcodec 58. 54.100 / 58. 54.100
libavformat 58. 29.100 / 58. 29.100 libavformat 58. 29.100 / 58. 29.100
libavdevice 58. 8.100 / 58. 8.100 libavdevice 58. 8.100 / 58. 8.100
libavfilter 7. 57.100 / 7. 57.100 libavfilter 7. 57.100 / 7. 57.100
libavresample 4. 0. 0 / 4. 0. 0 libavresample 4. 0. 0 / 4. 0. 0
libswscale 5. 5.100 / 5. 5.100 libswscale 5. 5.100 / 5. 5.100
libswresample 3. 5.100 / 3. 5.100 libswresample 3. 5.100 / 3. 5.100
libpostproc 55. 5.100 / 55. 5.100 libpostproc 55. 5.100 / 55. 5.100
Input #0, mov,mp4,m4a,3gp,3g2,mj2, from 'originalFile.mp4':Input #0, mov,mp4,m4a,3gp,3g2,mj2, from 'outputFile.mp4':
Metadata: Metadata:
major_brand : isom major_brand : isom
minor_version : 512 minor_version : 512
compatible_brands: isomiso2avc1mp41 compatible_brands: isomiso2avc1mp41
encoder : Lavf58.29.100 encoder : Lavf58.29.100
Duration: 00:01:00.01, start: 0.000000, bitrate: 5956 kb/s Duration: 00:01:00.03, start: 0.000000, bitrate: 1699 kb/s
Stream #0:0(und): Video: h264 (High) (avc1 / 0x31637661), yuv420p(tv, smpte170m/bt470bg/bt709), 768x576 [SAR 1:1 DAR 4:3], 5703 kb/s, 25 fps, 25 tbr, 12800 tbn, 50 tbc (default) Stream #0:0(und): Video: h264 (High) (avc1 / 0x31637661), yuv420p, 768x576 [SAR 1:1 DAR 4:3], 1565 kb/s, 25 fps, 25 tbr, 12800 tbn, 50 tbc (default)
Metadata: Metadata:
handler_name : Core Media Video handler_name : Core Media Video
Stream #0:1(eng): Audio: aac (LC) (mp4a / 0x6134706D), 48000 Hz, stereo, fltp, 249 kb/s (default) Stream #0:1(eng): Audio: aac (LC) (mp4a / 0x6134706D), 48000 Hz, stereo, fltp, 128 kb/s (default)
Metadata: Metadata:
handler_name : Core Media Audio handler_name : Core Media Audio
[STREAM][STREAM]
index=0index=0
codec_name=h264codec_name=h264
codec_long_name=H.264 / AVC / MPEG-4 AVC / MPEG-4 part 10codec_long_name=H.264 / AVC / MPEG-4 AVC / MPEG-4 part 10
profile=Highprofile=High
codec_type=videocodec_type=video
codec_time_base=1/50codec_time_base=1/50
codec_tag_string=avc1codec_tag_string=avc1
codec_tag=0x31637661codec_tag=0x31637661
width=768width=768
height=576height=576
coded_width=768coded_width=768
coded_height=576coded_height=576
has_b_frames=0has_b_frames=2
sample_aspect_ratio=1:1sample_aspect_ratio=1:1
display_aspect_ratio=4:3display_aspect_ratio=4:3
pix_fmt=yuv420ppix_fmt=yuv420p
level=31level=31
color_range=tvcolor_range=unknown
color_space=smpte170mcolor_space=unknown
color_transfer=bt709color_transfer=unknown
color_primaries=bt470bgcolor_primaries=unknown
chroma_location=leftchroma_location=left
field_order=unknownfield_order=unknown
timecode=N/Atimecode=N/A
refs=1refs=1
is_avc=trueis_avc=true
nal_length_size=4nal_length_size=4
id=N/Aid=N/A
r_frame_rate=25/1r_frame_rate=25/1
avg_frame_rate=25/1avg_frame_rate=25/1
time_base=1/12800time_base=1/12800
start_pts=0start_pts=0
start_time=0.000000start_time=0.000000
duration_ts=768000duration_ts=768000
duration=60.000000duration=60.000000
bit_rate=5703835bit_rate=1565036
max_bit_rate=N/Amax_bit_rate=N/A
bits_per_raw_sample=8bits_per_raw_sample=8
nb_frames=1500nb_frames=1500
nb_read_frames=N/Anb_read_frames=N/A
nb_read_packets=N/Anb_read_packets=N/A
DISPOSITION:default=1DISPOSITION:default=1
DISPOSITION:dub=0DISPOSITION:dub=0
DISPOSITION:original=0DISPOSITION:original=0
DISPOSITION:comment=0DISPOSITION:comment=0
DISPOSITION:lyrics=0DISPOSITION:lyrics=0
DISPOSITION:karaoke=0DISPOSITION:karaoke=0
DISPOSITION:forced=0DISPOSITION:forced=0
DISPOSITION:hearing_impaired=0DISPOSITION:hearing_impaired=0
DISPOSITION:visual_impaired=0DISPOSITION:visual_impaired=0
DISPOSITION:clean_effects=0DISPOSITION:clean_effects=0
DISPOSITION:attached_pic=0DISPOSITION:attached_pic=0
DISPOSITION:timed_thumbnails=0DISPOSITION:timed_thumbnails=0
TAG:language=undTAG:language=und
TAG:handler_name=Core Media VideoTAG:handler_name=Core Media Video
[/STREAM][/STREAM]
[STREAM][STREAM]
index=1index=1
codec_name=aaccodec_name=aac
codec_long_name=AAC (Advanced Audio Coding)codec_long_name=AAC (Advanced Audio Coding)
profile=LCprofile=LC
codec_type=audiocodec_type=audio
codec_time_base=1/48000codec_time_base=1/48000
codec_tag_string=mp4acodec_tag_string=mp4a
codec_tag=0x6134706dcodec_tag=0x6134706d
sample_fmt=fltpsample_fmt=fltp
sample_rate=48000sample_rate=48000
channels=2channels=2
channel_layout=stereochannel_layout=stereo
bits_per_sample=0bits_per_sample=0
id=N/Aid=N/A
r_frame_rate=0/0r_frame_rate=0/0
avg_frame_rate=0/0avg_frame_rate=0/0
time_base=1/48000time_base=1/48000
start_pts=0start_pts=0
start_time=0.000000start_time=0.000000
duration_ts=2880512duration_ts=2880480
duration=60.010667duration=60.010000
bit_rate=249172bit_rate=128799
max_bit_rate=249172max_bit_rate=128799
bits_per_raw_sample=N/Abits_per_raw_sample=N/A
nb_frames=2813nb_frames=2814
nb_read_frames=N/Anb_read_frames=N/A
nb_read_packets=N/Anb_read_packets=N/A
DISPOSITION:default=1DISPOSITION:default=1
DISPOSITION:dub=0DISPOSITION:dub=0
DISPOSITION:original=0DISPOSITION:original=0
DISPOSITION:comment=0DISPOSITION:comment=0
DISPOSITION:lyrics=0DISPOSITION:lyrics=0
DISPOSITION:karaoke=0DISPOSITION:karaoke=0
DISPOSITION:forced=0DISPOSITION:forced=0
DISPOSITION:hearing_impaired=0DISPOSITION:hearing_impaired=0
DISPOSITION:visual_impaired=0DISPOSITION:visual_impaired=0
DISPOSITION:clean_effects=0DISPOSITION:clean_effects=0
DISPOSITION:attached_pic=0DISPOSITION:attached_pic=0
DISPOSITION:timed_thumbnails=0DISPOSITION:timed_thumbnails=0
TAG:language=engTAG:language=eng
TAG:handler_name=Core Media AudioTAG:handler_name=Core Media Audio
[/STREAM][/STREAM]
Editor
Original Text
Changed Text