-42 Removals
+43 Additions
ffprobe version 2.8.4 Copyright (c) 2007-2015 the FFmpeg developersffprobe version 2.8.4 Copyright (c) 2007-2015 the FFmpeg developers
built with Apple LLVM version 7.0.2 (clang-700.1.81) built with Apple LLVM version 7.0.2 (clang-700.1.81)
configuration: --prefix=/usr/local/Cellar/ffmpeg/2.8.4 --enable-shared --enable-pthreads --enable-gpl --enable-version3 --enable-hardcoded-tables --enable-avresample --cc=clang --host-cflags= --host-ldflags= --enable-opencl --enable-libx264 --enable-libmp3lame --enable-libvo-aacenc --enable-libxvid --enable-vda configuration: --prefix=/usr/local/Cellar/ffmpeg/2.8.4 --enable-shared --enable-pthreads --enable-gpl --enable-version3 --enable-hardcoded-tables --enable-avresample --cc=clang --host-cflags= --host-ldflags= --enable-opencl --enable-libx264 --enable-libmp3lame --enable-libvo-aacenc --enable-libxvid --enable-vda
libavutil 54. 31.100 / 54. 31.100 libavutil 54. 31.100 / 54. 31.100
libavcodec 56. 60.100 / 56. 60.100 libavcodec 56. 60.100 / 56. 60.100
libavformat 56. 40.101 / 56. 40.101 libavformat 56. 40.101 / 56. 40.101
libavdevice 56. 4.100 / 56. 4.100 libavdevice 56. 4.100 / 56. 4.100
libavfilter 5. 40.101 / 5. 40.101 libavfilter 5. 40.101 / 5. 40.101
libavresample 2. 1. 0 / 2. 1. 0 libavresample 2. 1. 0 / 2. 1. 0
libswscale 3. 1.101 / 3. 1.101 libswscale 3. 1.101 / 3. 1.101
libswresample 1. 2.101 / 1. 2.101 libswresample 1. 2.101 / 1. 2.101
libpostproc 53. 3.100 / 53. 3.100 libpostproc 53. 3.100 / 53. 3.100
Input #0, mov,mp4,m4a,3gp,3g2,mj2, from 'MVI_0188.MOV':Input #0, mov,mp4,m4a,3gp,3g2,mj2, from '001_005_MVI_0188.MOV':
Metadata: Metadata:
major_brand : qt major_brand : qt
minor_version : 537331968 minor_version : 512
compatible_brands: qt CAEP compatible_brands: qt
creation_time : 2016-02-20 19:54:07 encoder : Lavf56.40.101
Duration: 00:12:00.76, start: 0.000000, bitrate: 47515 kb/s Duration: 00:00:06.13, start: 0.247500, bitrate: 46395 kb/s
Stream #0:0(eng): Video: h264 (Constrained Baseline) (avc1 / 0x31637661), yuvj420p(pc, smpte170m/bt709/bt709), 1920x1080, 45976 kb/s, 23.98 fps, 23.98 tbr, 24k tbn, 48k tbc (default) Stream #0:0(eng): Video: h264 (Constrained Baseline) (avc1 / 0x31637661), yuvj420p(pc, smpte170m/bt709/bt709), 1920x1080, 46272 kb/s, 23.98 fps, 23.98 tbr, 24k tbn, 48k tbc (default)
Metadata: Metadata:
creation_time : 2016-02-20 19:54:07 handler_name : DataHandler
Stream #0:1(eng): Audio: pcm_s16le (sowt / 0x74776F73), 48000 Hz, stereo, s16, 1536 kb/s (default) Stream #0:1(eng): Audio: aac (LC) (mp4a / 0x6134706D), 48000 Hz, stereo, fltp, 128 kb/s (default)
Metadata: Metadata:
creation_time : 2016-02-20 19:54:07 handler_name : DataHandler
[STREAM][STREAM]
index=0index=0
codec_name=h264codec_name=h264
codec_long_name=H.264 / AVC / MPEG-4 AVC / MPEG-4 part 10codec_long_name=H.264 / AVC / MPEG-4 AVC / MPEG-4 part 10
profile=Constrained Baselineprofile=Constrained Baseline
codec_type=videocodec_type=video
codec_time_base=1/48000codec_time_base=1/48000
codec_tag_string=avc1codec_tag_string=avc1
codec_tag=0x31637661codec_tag=0x31637661
width=1920width=1920
height=1080height=1080
coded_width=1920coded_width=1920
coded_height=1088coded_height=1088
has_b_frames=0has_b_frames=0
sample_aspect_ratio=0:1sample_aspect_ratio=0:1
display_aspect_ratio=0:1display_aspect_ratio=0:1
pix_fmt=yuvj420ppix_fmt=yuvj420p
level=50level=50
color_range=pccolor_range=pc
color_space=smpte170mcolor_space=smpte170m
color_transfer=bt709color_transfer=bt709
color_primaries=bt709color_primaries=bt709
chroma_location=leftchroma_location=left
timecode=N/Atimecode=N/A
refs=1refs=1
is_avc=1is_avc=1
nal_length_size=4nal_length_size=4
id=N/Aid=N/A
r_frame_rate=24000/1001r_frame_rate=24000/1001
avg_frame_rate=24000/1001avg_frame_rate=24000/1001
time_base=1/24000time_base=1/24000
start_pts=0start_pts=-5940
start_time=0.000000start_time=-0.247500
duration_ts=17298281duration_ts=147147
duration=720.761708duration=6.131125
bit_rate=45976490bit_rate=46272977
max_bit_rate=N/Amax_bit_rate=N/A
bits_per_raw_sample=8bits_per_raw_sample=8
nb_frames=17281nb_frames=147
nb_read_frames=N/Anb_read_frames=N/A
nb_read_packets=N/Anb_read_packets=N/A
DISPOSITION:default=1DISPOSITION:default=1
DISPOSITION:dub=0DISPOSITION:dub=0
DISPOSITION:original=0DISPOSITION:original=0
DISPOSITION:comment=0DISPOSITION:comment=0
DISPOSITION:lyrics=0DISPOSITION:lyrics=0
DISPOSITION:karaoke=0DISPOSITION:karaoke=0
DISPOSITION:forced=0DISPOSITION:forced=0
DISPOSITION:hearing_impaired=0DISPOSITION:hearing_impaired=0
DISPOSITION:visual_impaired=0DISPOSITION:visual_impaired=0
DISPOSITION:clean_effects=0DISPOSITION:clean_effects=0
DISPOSITION:attached_pic=0DISPOSITION:attached_pic=0
TAG:creation_time=2016-02-20 19:54:07
TAG:language=engTAG:language=eng
TAG:handler_name=DataHandler
[/STREAM][/STREAM]
[STREAM][STREAM]
index=1index=1
codec_name=pcm_s16lecodec_name=aac
codec_long_name=PCM signed 16-bit little-endiancodec_long_name=AAC (Advanced Audio Coding)
profile=unknownprofile=LC
codec_type=audiocodec_type=audio
codec_time_base=1/48000codec_time_base=1/48000
codec_tag_string=sowtcodec_tag_string=mp4a
codec_tag=0x74776f73codec_tag=0x6134706d
sample_fmt=s16sample_fmt=fltp
sample_rate=48000sample_rate=48000
channels=2channels=2
channel_layout=stereochannel_layout=stereo
bits_per_sample=16bits_per_sample=0
id=N/Aid=N/A
r_frame_rate=0/0r_frame_rate=0/0
avg_frame_rate=0/0avg_frame_rate=0/0
time_base=1/48000time_base=1/48000
start_pts=0start_pts=-1600
start_time=0.000000start_time=-0.033333
duration_ts=34596562duration_ts=283840
duration=720.761708duration=5.913333
bit_rate=1536000bit_rate=128374
max_bit_rate=N/Amax_bit_rate=128374
bits_per_raw_sample=N/Abits_per_raw_sample=N/A
nb_frames=34596562nb_frames=278
nb_read_frames=N/Anb_read_frames=N/A
nb_read_packets=N/Anb_read_packets=N/A
DISPOSITION:default=1DISPOSITION:default=1
DISPOSITION:dub=0DISPOSITION:dub=0
DISPOSITION:original=0DISPOSITION:original=0
DISPOSITION:comment=0DISPOSITION:comment=0
DISPOSITION:lyrics=0DISPOSITION:lyrics=0
DISPOSITION:karaoke=0DISPOSITION:karaoke=0
DISPOSITION:forced=0DISPOSITION:forced=0
DISPOSITION:hearing_impaired=0DISPOSITION:hearing_impaired=0
DISPOSITION:visual_impaired=0DISPOSITION:visual_impaired=0
DISPOSITION:clean_effects=0DISPOSITION:clean_effects=0
DISPOSITION:attached_pic=0DISPOSITION:attached_pic=0
TAG:creation_time=2016-02-20 19:54:07
TAG:language=engTAG:language=eng
TAG:handler_name=DataHandler
[/STREAM][/STREAM]
Editor
Original Text
Changed Text